762

主题

762

帖子

51

果子

超级版主

积分
1652
我的设备
索尼
发表于 2019-12-1 23:16:06 | 显示全部楼层 |阅读模式
小姐与流浪汉4k电影4K高清资源免费下载

Hao4K更新:

小姐与流浪汉4k Lady.and.the.Tramp.2019.2160p.DSNP.WEBRip.x265.10bit.HDR.DD5.1电影下载

小姐与流浪汉4k电影下载地址:https://www.hao4k.cn/thread-41205-1-1.html

02.jpg

片  名:        小姐与流浪汉4k
电影分类:        冒险   剧情   喜剧   动画   爱情片   
国  家:        美国   
年  代:        2019
分 辨 率:        4K(3840x2160)   
电影格式:        MKV|REMUX   
画质标准:        其他
音质编码:        Dolby Digital Plus Audio   
电影声道:        5.1声道   
电影语言:        英文原版     
资源大小:        15.08 GB
导  演:        查理·宾
豆瓣评分:        6.8 分
剧情简介:        
迪士尼欲打造真人CG版[小姐与流浪汉],[乐高忍者大电影]导演查理·宾将执导该片,安德鲁·布加尔斯基操刀剧本。原版1955年动画故事讲述宠物狗”淑女“离家出走后遇到好心流浪狗查普,他们很快成为朋友,在种种磨难后,他们也擦出爱的火花。目前影片卡司阵容尚未公布。

小姐与流氓/小姐与流浪汉4k Lady.and.the.Tramp.2019.2160p.DSNP.WEBRip.x265.10bit.HDR.DD5.1电影信息
  1. Video
  2. ID : 1
  3. Format : HEVC
  4. Format/Info : High Efficiency Video Coding
  5. Format profile : Main 10@L5@Main
  6. Codec ID : V_MPEGH/ISO/HEVC
  7. Duration : 1 h 42 min
  8. Bit rate : 20.3 Mb/s
  9. Width : 3 840 pixels
  10. Height : 1 920 pixels
  11. Display aspect ratio : 2.000
  12. Frame rate mode : Constant
  13. Frame rate : 23.976 (24000/1001) FPS
  14. Color space : YUV
  15. Chroma subsampling : 4:2:0
  16. Bit depth : 10 bits
  17. Bits/(Pixel*Frame) : 0.115
  18. Stream size : 14.6 GiB (97%)
  19. Writing library : x265 3.2+8-7fc1f6ef2b96:[Windows][MSVC 1923][64 bit] 10bit
  20. Encoding settings : cpuid=1111039 / frame-threads=4 / numa-pools=28 / wpp / no-pmode / no-pme / no-psnr / no-ssim / log-level=2 / input-csp=1 / input-res=3840x1920 / interlace=0 / total-frames=0 / level-idc=0 / high-tier=1 / uhd-bd=0 / ref=5 / no-allow-non-conformance / repeat-headers / annexb / no-aud / no-hrd / info / hash=0 / no-temporal-layers / open-gop / min-keyint=23 / keyint=250 / gop-lookahead=0 / bframes=8 / b-adapt=2 / b-pyramid / bframe-bias=0 / rc-lookahead=40 / lookahead-slices=0 / scenecut=40 / radl=0 / no-splice / no-intra-refresh / ctu=64 / min-cu-size=8 / no-rect / no-amp / max-tu-size=32 / tu-inter-depth=3 / tu-intra-depth=3 / limit-tu=0 / rdoq-level=1 / dynamic-rd=0.00 / no-ssim-rd / signhide / no-tskip / nr-intra=0 / nr-inter=0 / no-constrained-intra / strong-intra-smoothing / max-merge=5 / limit-refs=0 / no-limit-modes / me=3 / subme=4 / merange=57 / temporal-mvp / no-frame-dup / no-hme / weightp / weightb / no-analyze-src-pics / deblock=0:0 / no-sao / no-sao-non-deblock / rd=6 / selective-sao=0 / no-early-skip / rskip / no-fast-intra / no-tskip-fast / no-cu-lossless / b-intra / no-splitrd-skip / rdpenalty=0 / psy-rd=4.00 / psy-rdoq=8.00 / no-rd-refine / no-lossless / cbqpoffs=0 / crqpoffs=0 / rc=crf / crf=14.0 / qcomp=0.60 / qpstep=4 / stats-write=0 / stats-read=0 / ipratio=1.40 / pbratio=1.30 / aq-mode=2 / aq-strength=1.00 / cutree / zone-count=0 / no-strict-cbr / qg-size=32 / no-rc-grain / qpmax=69 / qpmin=0 / no-const-vbv / sar=0 / overscan=0 / videoformat=5 / range=0 / colorprim=9 / transfer=16 / colormatrix=9 / chromaloc=0 / display-window=0 / cll=0,0 / min-luma=0 / max-luma=1023 / log2-max-poc-lsb=8 / vui-timing-info / vui-hrd-info / slices=1 / no-opt-qp-pps / no-opt-ref-list-length-pps / no-multi-pass-opt-rps / scenecut-bias=0.05 / no-opt-cu-delta-qp / no-aq-motion / no-hdr / hdr-opt / no-dhdr10-opt / no-idr-recovery-sei / analysis-reuse-level=5 / scale-factor=0 / refine-intra=0 / refine-inter=0 / refine-mv=1 / refine-ctu-distortion=0 / no-limit-sao / ctu-info=0 / no-lowpass-dct / refine-analysis-type=0 / copy-pic=1 / max-ausize-factor=1.0 / no-dynamic-refine / no-single-sei / no-hevc-aq / no-svt / no-field / qp-adaptation-range=1.00
  21. Default : Yes
  22. Forced : No
  23. Color range : Limited
  24. Color primaries : BT.2020
  25. Transfer characteristics : PQ
  26. Matrix coefficients : BT.2020 non-constant

  27. Audio
  28. ID : 2
  29. Format : E-AC-3
  30. Format/Info : Enhanced AC-3
  31. Commercial name : Dolby Digital Plus
  32. Codec ID : A_EAC3
  33. Duration : 1 h 42 min
  34. Bit rate mode : Constant
  35. Bit rate : 256 kb/s
  36. Channel(s) : 6 channels
  37. Channel layout : L R C LFE Ls Rs
  38. Sampling rate : 48.0 kHz
  39. Frame rate : 31.250 FPS (1536 SPF)
  40. Compression mode : Lossy
  41. Stream size : 188 MiB (1%)
  42. Title : English
  43. Language : English
  44. Service kind : Complete Main
  45. Default : Yes
  46. Forced : No
复制代码
更多最新4K电影下载https://www.hao4k.cn/4KUHD/
回复

使用道具 举报

0

主题

254

帖子

0

果子

初学级会员

积分
179
发表于 6 天前 | 显示全部楼层
这么快就出4K的了? 我还因为得一段时间呢
回复 支持 反对

使用道具 举报

您需要登录后才可以回帖 登录 | 注册账号

本版积分规则

返回顶部 联系我们