969

主题

969

帖子

51

果子

超级版主

积分
2087
我的设备
索尼
发表于 2020-8-16 22:19:58 | 显示全部楼层 |阅读模式
Hao4K更新:
- r5 W7 D' h, c' f4 s5 X/ V: F/ i0 i' \. R* L+ U. H# W
魔鬼训练营/魔法训练营4k Magic.Camp.2020.HDR.2160p.WEB.h265-4k电影下载
3 w  r* R2 g' b0 m
; k8 }* F, I! @" A魔法训练营4k Magic.Camp.2020.HDR.2160p.WEB.h265【11.93 GB】" s! p7 c5 t$ v/ _
4 Y' M9 z: B5 j
魔法训练营4k下载地址:
https://www.hao4k.cn/thread-49008-1-1.html
5 {2 u' a/ p, }
8 J8 D( R* m" |$ m/ }) k) p! J
4 a. e4 h# U0 Z9 D' R* d; k6 J2 }5 {. F0 S+ r+ F7 A1 r( @0 U
片  名:        魔法训练营4k
5 X' o6 M% T1 N4 B4 C" k/ ^8 h1 ~  M7 \3 u! G) i  N2 a) \
电影分类:        喜剧 奇幻
' ?/ V2 z+ E0 K! j9 n% c9 ^国  家:        美国 ' m) Z5 X6 b5 Q* Q, @; p, |
年  代:        2020年# h2 O  F1 E  G6 l- f* M9 e
分 辨 率:        4K(3840x2160)
4 L  z/ ~: X+ B4 c/ Q6 O电影格式:        MKV|REMUX " J5 d8 z# |6 B
画质标准:        HDR 6 ^/ `- m) h$ e% p8 s4 u+ E
音质编码:        Dolby Digital Plus Audio
7 \. P/ y% d4 ~& V电影声道:        其他 7 W5 Z) y( ?( B' }  O
帧数/FPS:        23.976 FPS; d( Z0 J6 K, M3 B
电影语言:        英文原版
! P1 ]1 \8 @) {资源大小:        11.93 GB
5 Z2 Q, w! B& V# A- ]0 @导  演:        马克·沃特斯4 O( _/ s  f! O: R4 C, B
豆瓣评分:        6.2 分# ?  k: v. [. _" a$ z- S. X# n
中文字幕:        -
5 y$ M  ^2 ?4 H& ^- _剧情简介:        故事讲述德维尼饰演的银行家事业失败、情场失意,他试图通过神奇的“魔法训练营”回到自己的少年时期,找回自信,重塑人生。
0 `( c# S  L7 f+ U( k
  1. Video) C. l1 A; \  j! m& q
  2. ID : 1
    0 b# j! y6 w* |# p
  3. Format : HEVC9 h1 @4 T' j. L# t/ s$ ]+ R1 v
  4. Format/Info : High Efficiency Video Coding2 e; A7 m0 C' b
  5. Format profile : Main 10@L5@High4 V* f+ {9 w5 z# c& ]$ D
  6. Codec ID : V_MPEGH/ISO/HEVC
    6 R! |5 {5 o4 F, P
  7. Duration : 1 h 37 min
    - u3 \5 Q- b6 q. u; U
  8. Bit rate : 16.5 Mb/s
      @  R* \4 u- N& b' e
  9. Width : 3 840 pixels
    : B1 h4 h2 d% Z# @
  10. Height : 2 160 pixels
    2 Q3 R/ J* J& @, I
  11. Display aspect ratio : 16:9
    0 n( V$ A, I9 j3 W( R4 J
  12. Frame rate mode : Constant" c% `( B; |! L  ~6 w
  13. Frame rate : 23.976 (24000/1001) FPS' W' k6 B  v3 o( [. q
  14. Color space : YUV
    , ^) S. M* k6 I* R, F4 H7 u1 J! w- y3 g
  15. Chroma subsampling : 4:2:0
    & }( `0 d; k- M& |& q) g) [
  16. Bit depth : 10 bits+ C+ k! L; b) G) C" V2 `" [
  17. Bits/(Pixel*Frame) : 0.083
    9 C; Y- w5 A7 o
  18. Stream size : 11.3 GiB (96%)8 ^3 [2 L4 \' k0 @
  19. Language : English8 x# F3 O$ @8 T9 ]9 k0 @( l
  20. Default : Yes4 F* p0 A/ u7 i" P* H. ]/ G
  21. Forced : No$ m/ d0 g6 ?/ _, m4 V
  22. Color range : Limited0 \$ t- T. f+ f2 K% F
  23. Color primaries : BT.2020
    $ S; H6 I/ g8 i% f' u5 p1 F( Z
  24. Transfer characteristics : PQ
    0 A" g9 ^( v8 i) M# D* Z$ i3 F( A8 o
  25. Matrix coefficients : BT.2020 non-constant( b! a& O3 S0 l6 Q

  26. 4 R$ i) T4 z* W, y8 [! H8 t! D
  27. Audio
    : l, i" ]: \; O3 }7 c
  28. ID : 2
    6 Z, ]5 e7 I+ _" k$ h2 Q: P
  29. Format : E-AC-3 JOC$ @& V" h9 c+ n, C( h
  30. Format/Info : Enhanced AC-3 with Joint Object Coding
    * Q9 l( }5 j3 V: {2 p9 J  ~* o
  31. Commercial name : Dolby Digital Plus with Dolby Atmos
    ( {5 b* x/ k- x
  32. Codec ID : A_EAC3
    6 R8 _/ M2 Z" n3 z( T/ G* e
  33. Duration : 1 h 37 min
    * o4 ?3 e( u; w( m2 V
  34. Bit rate mode : Constant
    / a) `% I9 _$ k5 \
  35. Bit rate : 768 kb/s
    8 C8 n- }( T0 Q6 z9 e
  36. Channel(s) : 6 channels$ E9 g0 I- N( k% C% k
  37. Channel layout : L R C LFE Ls Rs6 e) P' Z" w3 h  Y$ g- t* g1 i% K' Q9 n
  38. Sampling rate : 48.0 kHz/ F0 `) ]( }8 e: `; v; L
  39. Frame rate : 31.250 FPS (1536 SPF)
    5 B- p3 ?. f& ~3 i+ S  U
  40. Compression mode : Lossy
    & }4 C% k" b3 P" H$ Z
  41. Stream size : 538 MiB (4%)
    : u( d. ]7 j9 b/ m
  42. Language : English( G( e5 X8 J, O) {) B1 s0 S- |
  43. Service kind : Complete Main
    # L, q" \5 x7 r( M
  44. Default : Yes, H# b; ^$ K8 r8 c& k0 J
  45. Forced : No
    ( `% [# T' T* d7 m
  46. Complexity index : 14% _9 c& z7 y" S2 N: f* o' Y5 R
  47. Number of dynamic objects : 4
    / x# w* r7 G( |! @7 L' H
  48. Bed channel count : 10 channels* F0 }- J) A; d+ j
  49. Bed channel configuration : L R C LFE Ls Rs Lb Rb Tsl Tsr
    . B9 B4 Y- ]: U5 }

  50. / z% J  F8 Y! X7 I; n' D) a
  51. Text #1
    % S! W# P7 {' R8 K+ \
  52. ID : 39 }. p4 g, Y0 Q- h1 [2 d- L5 B
  53. Format : UTF-8' r0 |7 R( f9 ?% g4 w  M- N
  54. Codec ID : S_TEXT/UTF8
    " g$ A2 S% q( S- t& K& A
  55. Codec ID/Info : UTF-8 Plain Text& |9 T4 x; Z" Y- ?3 d. C8 j9 Q3 @
  56. Duration : 1 h 34 min
      V- j0 p2 o6 r- G1 R0 z
  57. Bit rate : 76 b/s
    ' B  O/ k3 i( q( A; G" Q0 A! T% C
  58. Count of elements : 15198 d' g4 y& d! u
  59. Stream size : 53.2 KiB (0%)
    ! r- h5 n9 e' z6 }4 h" {, b
  60. Title : Dansk
    & S# |  M' K; k8 m6 A
  61. Language : Danish# T" g, [8 `1 |& o
  62. Default : No5 Q3 V: s8 j; E. o( b
  63. Forced : No* U/ n- G& G$ t8 G8 V/ ]2 x# c% J

  64. " K: |, ^  [0 n3 }& _/ J- }1 G" _( V
  65. Text #2
    / z8 l6 y* z1 c1 n" i5 U
  66. ID : 4
    3 y  P; |, j5 b" o. d( b
  67. Format : UTF-8
    ; V7 h2 [" h: n
  68. Codec ID : S_TEXT/UTF8, b! F4 _' H' i$ J( k9 b
  69. Codec ID/Info : UTF-8 Plain Text
    6 p% j8 O4 O# Y/ n+ M# S
  70. Duration : 1 h 34 min
    , q& N" W5 T( a' u0 r
  71. Bit rate : 75 b/s
    & m, G0 W* Z" m) W% S: ^
  72. Count of elements : 14779 [/ g' K8 n* G2 m
  73. Stream size : 52.5 KiB (0%)
    ( z" i: w/ z6 K' z
  74. Title : Deutsch1 m* _. F8 X. l2 s2 N. L+ S- b8 t+ q
  75. Language : German
    % O4 A: J" ]4 y1 m
  76. Default : No
    9 Y6 L! U1 s6 g
  77. Forced : No% p* v: |# \6 A4 Y+ a1 q& A9 y

  78. ) e: f0 |/ }# I- T% A4 Z
  79. Text #3
    6 `- Y$ i! P4 q' K' I
  80. ID : 5
    : e5 s: l- M8 A7 F3 X
  81. Format : UTF-84 p" P' D2 E7 m. t8 l
  82. Codec ID : S_TEXT/UTF8
    ' I6 A) M; j% y0 B. B; v( Y
  83. Codec ID/Info : UTF-8 Plain Text1 i3 o7 \# x& Q% n4 H3 t; @
  84. Duration : 1 h 35 min
    5 U9 v4 y" b( x/ \
  85. Bit rate : 87 b/s7 O6 c7 h2 Z9 V2 _
  86. Count of elements : 1701
    ' A5 O+ `' D: N4 M7 m) _+ I
  87. Stream size : 61.7 KiB (0%)+ z3 x- v6 B. y; C7 [
  88. Title : English (SDH)
    ( N$ s" N, D  i& z+ j# Z
  89. Language : English
    4 u7 Q5 z  p2 s& _" U1 G! O
  90. Default : No$ k% c: k0 R2 t' T' R
  91. Forced : No9 g/ r) b0 C8 }$ V" j+ W' P

  92. 8 F6 @3 z! y* @1 N
  93. Text #47 b) l" ?! `. C3 w( `
  94. ID : 6
    * H/ R% [5 Z$ p3 r
  95. Format : UTF-82 E& Z" D* U8 B$ E8 q
  96. Codec ID : S_TEXT/UTF86 X# M' S! v2 A+ H' G9 U4 W
  97. Codec ID/Info : UTF-8 Plain Text
    ! t; a4 d, _5 k
  98. Duration : 1 h 34 min
    5 u4 d" x# }( _
  99. Bit rate : 83 b/s
    / ~% M( H  M" F. |5 H2 w
  100. Count of elements : 1503
    6 X" }( c% d- `! J0 j
  101. Stream size : 58.2 KiB (0%)
    , A  `9 k( s3 u1 d
  102. Title : Español3 H/ A$ K- i# h
  103. Language : Spanish
    / \1 j7 c8 u. [  \# d2 N9 |
  104. Default : No$ V( H0 F! }9 ?+ T  O9 Z
  105. Forced : No
    , Q2 ?, |8 f  x2 Z3 p1 e$ M

  106. * w+ R7 m6 Y7 i# v& j5 w' S  f
  107. Text #5" \8 B: `* O% A2 i( \, w
  108. ID : 7
    , o, K! ~  B9 K2 }- S$ Q7 e3 ^
  109. Format : UTF-8, G5 @/ @  H0 ~8 @# L
  110. Codec ID : S_TEXT/UTF8+ C% c! ?8 B1 S) M
  111. Codec ID/Info : UTF-8 Plain Text- _; J4 Z1 r5 N! r6 H  N, y
  112. Duration : 1 h 34 min. [( G# Q4 H! Y& K
  113. Bit rate : 75 b/s: |) Y8 {) ^2 J" W# b
  114. Count of elements : 15147 V4 o  t% L# Z: B
  115. Stream size : 52.1 KiB (0%)
    + j; s: s* J2 y3 |, j$ b* q2 h$ ^
  116. Title : Español (Latinoamericano)
    - E0 E  Z" x' P. n
  117. Language : Spanish& f, T4 v# P  e  D- e
  118. Default : No3 B# z/ C1 h& O
  119. Forced : No
    7 x% j- }1 S$ y: d6 V3 `' T
  120. ' @' p% l" c# }0 U7 ]% j9 {
  121. Text #6% p& o- H- Y5 Y
  122. ID : 8: K. g( a- }2 w- P' M
  123. Format : UTF-8
    6 W0 L5 j. `8 l. z& H8 J" E
  124. Codec ID : S_TEXT/UTF8
    & r- x$ p7 y! E: ~" r+ j
  125. Codec ID/Info : UTF-8 Plain Text2 l  ?5 Q& W' P. t" j+ u, h2 w; D
  126. Duration : 1 h 31 min
    * k$ H9 u+ P* B* \; r5 L$ Z
  127. Bit rate : 65 b/s) q9 G! Z* X8 _3 O. z# B
  128. Count of elements : 15145 P5 J( j$ k4 S) |/ T
  129. Stream size : 43.7 KiB (0%)
    : s$ |6 c( Z4 g) b
  130. Title : Suomi
    / Y  \0 ^2 [+ Y6 L( s( S
  131. Language : Finnish- z$ ^2 Y$ R. q0 `2 r+ k
  132. Default : No, G+ @7 p. X3 l# a# t% E
  133. Forced : No
    ' }$ r8 Z. v/ P# w1 @( _5 }

  134. / G, W. I9 w1 q' {6 M) i
  135. Text #77 ]( Y% C1 P% L0 g' \
  136. ID : 9
    3 G+ P' }* @# U; C3 k9 C
  137. Format : UTF-8
    $ Q. V" O9 k% P" K' L6 a: q
  138. Codec ID : S_TEXT/UTF8; o  U# }8 c. a) M9 I/ n
  139. Codec ID/Info : UTF-8 Plain Text7 {- h+ z# h5 D2 ]5 Z+ P: l, d$ @( |
  140. Duration : 1 h 34 min
    # A3 I5 S/ S& A+ T
  141. Bit rate : 74 b/s( K5 y# L) g9 G$ P3 H* Q
  142. Count of elements : 1496( w; \) l) `4 m$ s5 D- v# p6 ]
  143. Stream size : 51.9 KiB (0%)
    + o' S) r8 h1 ~0 m; E
  144. Title : Français/ O# _  Y5 P, N0 {! Y+ p: O- ~8 N
  145. Language : French7 n' I9 j. l& i
  146. Default : No
    : h8 F. v) _0 a" @. U  M  U) r/ B0 G
  147. Forced : No
    - P" ?. W: Z9 h7 k, y$ a
  148. # [" c6 S( x* m, O1 s
  149. Text #8
    & g  p* h3 t7 c7 ?7 R9 c! _
  150. ID : 10  r' y; n# D( a) H% l) t- r& N2 R' F
  151. Format : UTF-8
    0 l( T$ C! \* D8 t  B
  152. Codec ID : S_TEXT/UTF8
    # F1 Z/ u$ G: {# g' N( R; x) g
  153. Codec ID/Info : UTF-8 Plain Text6 P* b8 B0 ~4 R# J# R
  154. Duration : 1 h 34 min
    ; ~6 a1 t; _6 `% |: a
  155. Bit rate : 82 b/s
    $ B& t& e4 S; p0 T
  156. Count of elements : 15113 f7 X# V, l" b0 O$ E
  157. Stream size : 57.4 KiB (0%)
    0 }4 K+ G* _: b- P4 D: j' L
  158. Title : Italiano
    7 ~% V2 K, y9 G( A3 _2 }
  159. Language : Italian- A$ q0 e: C/ [5 h# k
  160. Default : No
    # j6 y! |( S  k' O! d. j  z+ G
  161. Forced : No) h9 d0 T7 W$ }1 h' P0 D3 h

  162. 5 [& J( I9 H( M9 P' g2 z9 D; ?1 G
  163. Text #9( o/ k7 O) y" Z# O6 L' T
  164. ID : 114 C2 G$ w8 n' M* c( Z
  165. Format : UTF-8  U9 k+ B; a2 a7 V, l8 D3 H" {
  166. Codec ID : S_TEXT/UTF8
    $ E+ G9 {* I) G- B6 h5 ^
  167. Codec ID/Info : UTF-8 Plain Text
    0 z# C5 U0 M+ f+ n! Q' O
  168. Duration : 1 h 34 min
      N" i0 F* S+ S& \" W- Q4 o4 [
  169. Bit rate : 60 b/s- S2 l) e/ j& ]
  170. Count of elements : 1281
    6 i9 k8 n7 }( r, J" i( d3 ~: l3 B
  171. Stream size : 41.9 KiB (0%)
    ) f: [8 k; P9 d/ Z% ?3 m) d
  172. Title : Nederlands! @  u4 r) X9 x: x0 _) T3 O
  173. Language : Dutch8 R. A% V5 A, w! b) B  \
  174. Default : No
    3 r3 X' I" R" g' F; A
  175. Forced : No
    6 M1 e3 j1 r( l$ t8 l& a5 p9 z/ q
  176. : F: x3 l& n; `* Z* A. P
  177. Text #10. x. M4 f# X" D  h3 I+ ^' n
  178. ID : 12
    % z4 F" B( _/ [( o: C
  179. Format : UTF-8" ~7 e  O) P- H* z+ W* {9 {  n" o
  180. Codec ID : S_TEXT/UTF8/ C8 i- _& D! y  @  H! ~8 f3 E
  181. Codec ID/Info : UTF-8 Plain Text
    4 E: R- [$ b7 J$ }
  182. Duration : 1 h 34 min
    2 b- e6 H3 a  ]
  183. Bit rate : 66 b/s$ ]9 T8 d, X4 ^* t
  184. Count of elements : 1518& {* ~+ V) K5 j5 y% w$ C3 z
  185. Stream size : 46.0 KiB (0%)3 q8 y4 U  J. ]4 Z  p
  186. Title : Norsk
    2 P9 f4 q0 i0 t! ^2 q. ]3 i
  187. Language : Norwegian
    5 C8 v; e6 \) x" A" l. c$ |: w3 L/ ]
  188. Default : No7 i# \$ l3 L1 f5 p
  189. Forced : No0 t0 C; [% A8 W! H4 J3 b5 ~
  190. / L( n; w) L- W& A! o
  191. Text #11
    % g- g, \) G/ B- y% q) A
  192. ID : 13
    6 y2 y  ~$ V- U; g2 B$ y( c2 f: ^0 ~
  193. Format : UTF-8
    3 G4 x. D5 u& W4 |, @  r
  194. Codec ID : S_TEXT/UTF8
    * Q9 f  k/ o* W/ l
  195. Codec ID/Info : UTF-8 Plain Text
    ) T# z( m) w2 f) }0 }5 b2 R
  196. Duration : 1 h 37 min
    8 ^2 [7 b  ~$ {6 W! b. ?: M
  197. Bit rate : 70 b/s% f- X( }7 {3 n9 K. K) [
  198. Count of elements : 15075 o, ]& K" O- u2 [0 U8 {- u" E. D5 L
  199. Stream size : 50.4 KiB (0%)5 t  n& ^- O- ~. p9 z4 ?
  200. Title : Polski' H2 @( B4 E8 j; l$ h1 I: C
  201. Language : Polish
    * _) h# I, _& K) T0 B) z
  202. Default : No, i. Q9 k8 ]) C, Q$ p( K5 d) W4 b
  203. Forced : No
    ! @4 j* `( E2 u" ~- f  i

  204. ; l8 t5 A/ a5 g8 Q; _
  205. Text #12- M2 l: d+ R. g% P" m; v
  206. ID : 148 C6 ?3 F' Z) P
  207. Format : UTF-8& V) u7 }  i8 x8 H  c1 B
  208. Codec ID : S_TEXT/UTF8
    5 w# v* Z/ I( z. N. X
  209. Codec ID/Info : UTF-8 Plain Text" ?. K& t9 y+ p
  210. Duration : 1 h 34 min' x, [$ z' _2 V; }, ~2 f
  211. Bit rate : 74 b/s+ N8 ?- }( M% ^& O# I4 S5 X# l6 v
  212. Count of elements : 1485
      p0 F& u' f' v
  213. Stream size : 51.5 KiB (0%)3 I3 x6 K% }: H2 M0 c/ V
  214. Title : Português (Brasil)
      g$ w, u+ C4 ?# m
  215. Language : Portuguese
    , t; X$ r- f( |5 J9 ]  B5 I( Y
  216. Default : No
    ' z/ O; Z6 ^5 Z) @: Z7 C
  217. Forced : No6 \& Z4 Z, M9 H# I5 L/ g, j* M, k

  218. 6 L, c: U1 m! s( @; }& H- }
  219. Text #13
    " @. u2 r$ e& @9 f* V. d! G
  220. ID : 15
    * `$ I: H( t+ h& `' A
  221. Format : UTF-8
    1 S( t5 S2 p6 ?6 e! J
  222. Codec ID : S_TEXT/UTF81 w5 s) v( a: d
  223. Codec ID/Info : UTF-8 Plain Text" @, K: n" ^# a+ N: J4 p+ Y/ w
  224. Duration : 1 h 37 min9 x9 d' K& w: N  C# h0 n
  225. Bit rate : 81 b/s
    3 q5 }* g2 t" ^) x0 o5 F
  226. Count of elements : 1515# c9 J' M3 V; d5 M, k
  227. Stream size : 57.8 KiB (0%)
      {3 ^! f  G9 M/ E, ]9 A
  228. Title : Português; R3 a& m6 U* W8 L9 r
  229. Language : Portuguese
    # G, M: L; P+ P
  230. Default : No
    , `' w& E& M- E7 B/ ~1 ^
  231. Forced : No
    3 [8 w9 r5 e* S! x4 ?# @

  232. + T* G$ ]- a% [6 J- z. [4 F1 R  z
  233. Text #14! W9 T$ u& L. _( y" w# g' j% R. j
  234. ID : 16
    7 p  T( N. [2 R4 k7 N$ P
  235. Format : UTF-8
    ! T3 }  ^. V3 F* |7 R6 i6 m* }
  236. Codec ID : S_TEXT/UTF82 v- ~$ A- ?* y7 F) ?
  237. Codec ID/Info : UTF-8 Plain Text
    8 ^) c% k4 g7 ?; y0 k# I
  238. Duration : 1 h 34 min4 w* @9 o% l) V: C" ]
  239. Bit rate : 78 b/s
    5 _: B& B, m& Y# N% a) E
  240. Count of elements : 1519* m1 B1 q- R8 I  }* o3 f0 Y3 t
  241. Stream size : 54.7 KiB (0%)
    % l4 }$ j" h0 A$ e& O! r& a- J
  242. Title : Svenska7 a5 \1 X4 h; r6 l) D
  243. Language : Swedish9 w4 q9 {% l" ?8 Y; W3 Q' G- V/ a
  244. Default : No6 Y- J) f5 ?7 Z$ S% n% d
  245. Forced : No
复制代码
更多最新4K电影资源下载
% a9 w  v9 o; M5 k/ ~6 V1 a3 }https://www.hao4k.cn/forum-4kdianying-1.html
1 @1 T7 n3 u& e8 [3 |# v
回复

使用道具 举报

0

主题

321

帖子

0

果子

游学级会员

积分
288
发表于 2020-8-17 09:00:12 | 显示全部楼层
围观 围观 沙发在哪里!!!
回复 支持 反对

使用道具 举报

0

主题

335

帖子

0

果子

游学级会员

积分
300
发表于 2020-9-15 22:16:08 | 显示全部楼层
鄙视楼下的顶帖没我快,哈哈
回复 支持 反对

使用道具 举报

您需要登录后才可以回帖 登录 | 注册账号

本版积分规则

返回顶部 联系我们