1188

主题

1188

帖子

51

果子

超级版主

积分
2547
我的设备
索尼
发表于 2020-12-18 22:02:57 | 显示全部楼层 |阅读模式
Hao4K更新:

现代芭蕾舞 / 芭蕾正当时/足尖时代4K.Ballet.Now.2018.2160p.HULU.WEBRip.x265.10bit.SDR.DDP5.1-4K电影下载

足尖时代4K下载地址:https://www.hao4k.cn/thread-52174-1-1.html

Hao4K影音:专注4K家庭影音, 服务千万家庭影音发烧友!

片  名:        足尖时代4K
电影分类:        纪录片
国  家:        美国
年  代:        2018年
分 辨 率:        4K(3840x2160)
电影格式:        MKV|REMUX
画质标准:        SDR
音质编码:        Dolby Digital Plus Audio
电影声道:        5.1声道
帧数/FPS:        23.976 FPS
电影语言:        英文原版
资源大小:        7.78 GB
导  演:        史蒂文·坎托
豆瓣评分:        6.9 分

剧情简介:        
Featuring New York City Ballet\'s Prima Ballerina Tiler Peck - the first ever woman to be asked to curate The Music Center\'s famed BalletNOW program - and a diverse cast of world-class dancers from around the globe, the film follows Tiler as she tries to execute her groundbreaking vision of mashing together the worlds of tap, hip-hop, ballet and even clown artistry. With less than a week to pull it all off, Tiler faces the mounting pressures of not only dancing in multiple pieces but also producing and directing this high profile event. The success of the performances rests squarely on her shoulders. Will she pull it off?

现代芭蕾舞 / 芭蕾正当时/足尖时代4K.Ballet.Now.2018.2160p.HULU.WEBRip.x265.10bit.SDR.DDP5.1-4k电影信息
Video
ID : 1
Format : HEVC
Format/Info : High Efficiency Video Coding
Format profile : Main 10@L5.1@Main
Codec ID : V_MPEGH/ISO/HEVC
Duration : 1 h 13 min
Bit rate : 14.9 Mb/s
Width : 3 840 pixels
Height : 2 160 pixels
Display aspect ratio : 16:9
Frame rate mode : Constant
Frame rate : 23.976 (24000/1001) FPS
Color space : YUV
Chroma subsampling : 4:2:0
Bit depth : 10 bits
Bits/(Pixel*Frame) : 0.075
Stream size : 7.65 GiB (98%)
Default : Yes
Forced : No

Audio
ID : 2
Format : E-AC-3
Format/Info : Enhanced AC-3
Commercial name : Dolby Digital Plus
Codec ID : A_EAC3
Duration : 1 h 13 min
Bit rate mode : Constant
Bit rate : 256 kb/s
Channel(s) : 6 channels
Channel layout : L R C LFE Ls Rs
Sampling rate : 48.0 kHz
Frame rate : 31.250 FPS (1536 SPF)
Compression mode : Lossy
Stream size : 135 MiB (2%)
Language : English
Service kind : Complete Main
Default : Yes
Forced : No

Text #1
ID : 3
Format : UTF-8
Codec ID : S_TEXT/UTF8
Codec ID/Info : UTF-8 Plain Text
Duration : 1 h 13 min
Bit rate : 69 b/s
Count of elements : 1448
Stream size : 37.6 KiB (0%)
Language : English
Default : No
Forced : No

Text #2
ID : 4
Format : UTF-8
Codec ID : S_TEXT/UTF8
Codec ID/Info : UTF-8 Plain Text
Duration : 1 h 13 min
Bit rate : 68 b/s
Count of elements : 1493
Stream size : 37.1 KiB (0%)
Language : Spanish
Default : No
Forced : No

回复

使用道具 举报

0

主题

399

帖子

0

果子

游学级会员

积分
331
发表于 2020-12-18 22:45:05 来自奇珀手机版 | 显示全部楼层
。。。。。。
回复 支持 反对

使用道具 举报

0

主题

390

帖子

0

果子

游学级会员

积分
374
发表于 2021-1-17 22:00:54 | 显示全部楼层
经验证,hao4k里面的4K资源都是4K UHD破解蓝光原盘资源!
回复 支持 反对

使用道具 举报

您需要登录后才可以回帖 登录 | 注册账号

本版积分规则

返回顶部 联系我们