1246

主题

1246

帖子

51

果子

超级版主

积分
2669
我的设备
索尼
发表于 2021-3-9 18:00:37 | 显示全部楼层 |阅读模式
Hao4K更新:哈丽特4k.Harriet.2019.2160p.WEB-DL.x265.10bit.HDR.DTS-HD.MA.7.1.电影下载

哈丽特4K电影下载地址:https://www.hao4k.cn/thread-54862-1-1.html

Hao4K影音:专注4K家庭影音, 服务千万家庭影音发烧友

海芮(台) / 自由之火 / Freedom Fire/哈丽特4k Harriet.2019.2160p.WEB-DL.x265.10bit.HDR.DTS-HD.MA.7.1.电影信息

片  名:        哈丽特4k



电影分类:        剧情
国  家:        美国
年  代:        2019年
分 辨 率:        4K(3840x2160)
电影格式:        MKV|REMUX
画质标准:        HDR HDR10 SDR
音质编码:        Dolby Digital Plus Audio DTS-HD Master Audio
电影声道:        7.1声道
帧数/FPS:        23.976 FPS
电影语言:        英文原版
资源大小:        20.31 GB
导  演:        卡斯·莱蒙斯
豆瓣评分:        6.1 分

剧情简介:        
乔·阿尔文、小莱斯利·奥多姆将加盟传记影片[哈丽特],先前宣布加盟的卡司包括辛西娅·埃里沃、克拉克·彼得斯等。塞斯·曼恩(《国土安全》)执导。哈丽特·塔布曼生于1822年,原本是生活在马里兰州的黑奴,1849年她逃到北方,不久后加入到帮助奴隶逃亡的美国“地下铁路”中,成为最活跃的领袖之一,多次回到家乡带领其他奴隶逃往北方。南北战争爆发后,塔布曼积极参战,成为北军中为数不多的女性,战后她投身了争取妇女权益的运动。哈丽特也是首位登上美元的女性。影片将于下月在美国弗吉尼亚州开拍。

  1. Video
  2. ID : 1
  3. Format : HEVC
  4. Format/Info : High Efficiency Video Coding
  5. Format profile : Main 10@L5.1@Main
  6. HDR format : SMPTE ST 2086, HDR10 compatible
  7. Codec ID : V_MPEGH/ISO/HEVC
  8. Duration : 2 h 5 min
  9. Bit rate : 17.8 Mb/s
  10. Width : 3 840 pixels
  11. Height : 2 160 pixels
  12. Display aspect ratio : 16:9
  13. Frame rate mode : Constant
  14. Frame rate : 23.976 (24000/1001) FPS
  15. Original frame rate : 23.976 (23976/1000) FPS
  16. Color space : YUV
  17. Chroma subsampling : 4:2:0
  18. Bit depth : 10 bits
  19. Bits/(Pixel*Frame) : 0.090
  20. Stream size : 15.6 GiB (77%)
  21. Writing library : x265 3.0_RC+11-72188bd2f034:[Linux][GCC 4.9.2][64 bit] 10bit
  22. Encoding settings : cpuid=1111039 / frame-threads=3 / wpp / no-pmode / no-pme / no-psnr / no-ssim / log-level=2 / input-csp=1 / input-res=3840x2160 / interlace=0 / total-frames=0 / level-idc=51 / high-tier=1 / uhd-bd=0 / ref=4 / no-allow-non-conformance / repeat-headers / annexb / no-aud / no-hrd / info / hash=0 / no-temporal-layers / no-open-gop / min-keyint=24 / keyint=48 / gop-lookahead=0 / bframes=3 / b-adapt=0 / no-b-pyramid / bframe-bias=0 / rc-lookahead=15 / lookahead-slices=8 / scenecut=0 / radl=0 / no-splice / no-intra-refresh / ctu=64 / min-cu-size=8 / no-rect / no-amp / max-tu-size=32 / tu-inter-depth=1 / tu-intra-depth=1 / limit-tu=0 / rdoq-level=0 / dynamic-rd=0.00 / no-ssim-rd / signhide / no-tskip / nr-intra=0 / nr-inter=0 / no-constrained-intra / strong-intra-smoothing / max-merge=2 / limit-refs=3 / no-limit-modes / me=1 / subme=2 / merange=57 / temporal-mvp / weightp / no-weightb / no-analyze-src-pics / deblock=0:0 / sao / no-sao-non-deblock / rd=2 / no-early-skip / rskip / fast-intra / no-tskip-fast / no-cu-lossless / no-b-intra / no-splitrd-skip / rdpenalty=0 / psy-rd=2.00 / psy-rdoq=0.00 / no-rd-refine / no-lossless / cbqpoffs=0 / crqpoffs=0 / rc=cbr / bitrate=18000 / qcomp=0.60 / qpstep=4 / stats-write=0 / stats-read=0 / vbv-maxrate=18000 / vbv-bufsize=36000 / vbv-init=0.9 / ipratio=1.40 / pbratio=1.30 / aq-mode=2 / aq-strength=1.00 / cutree / zone-count=0 / no-strict-cbr / qg-size=32 / no-rc-grain / qpmax=69 / qpmin=0 / no-const-vbv / sar=1 / overscan=0 / videoformat=5 / range=0 / colorprim=9 / transfer=16 / colormatrix=9 / chromaloc=0 / display-window=0 / master-display=G(13250,34500)B(7500,3000)R(34000,16000)WP(15635,16450)L(10000000,50) / max-cll=536,175 / min-luma=0 / max-luma=1023 / log2-max-poc-lsb=8 / vui-timing-info / vui-hrd-info / slices=1 / no-opt-qp-pps / no-opt-ref-list-length-pps / no-multi-pass-opt-rps / scenecut-bias=0.05 / no-opt-cu-delta-qp / no-aq-motion / hdr / no-hdr-opt / no-dhdr10-opt / no-idr-recovery-sei / analysis-reuse-level=5 / scale-factor=0 / refine-intra=0 / refine-inter=0 / refine-mv=0 / refine-ctu-distortion=0 / no-limit-sao / ctu-info=0 / no-lowpass-dct / refine-analysis-type=0 / copy-pic=1 / max-ausize-factor=1.0 / no-dynamic-refine / no-single-sei / no-hevc-aq / qp-adaptation-range=1.00
  23. Default : Yes
  24. Forced : No
  25. Color range : Limited
  26. Color primaries : BT.2020
  27. Transfer characteristics : PQ
  28. Matrix coefficients : BT.2020 non-constant
  29. Mastering display color primaries : Display P3
  30. Mastering display luminance : min: 0.0050 cd/m2, max: 1000 cd/m2
  31. Maximum Content Light Level : 536 cd/m2
  32. Maximum Frame-Average Light Level : 175 cd/m2

  33. Audio #1
  34. ID : 2
  35. Format : DTS XLL
  36. Format/Info : Digital Theater Systems
  37. Commercial name : DTS-HD Master Audio
  38. Codec ID : A_DTS
  39. Duration : 2 h 5 min
  40. Bit rate mode : Variable
  41. Bit rate : 5 069 kb/s
  42. Channel(s) : 8 channels
  43. Channel layout : C L R LFE Lb Rb Lss Rss
  44. Sampling rate : 48.0 kHz
  45. Frame rate : 93.750 FPS (512 SPF)
  46. Bit depth : 24 bits
  47. Compression mode : Lossless
  48. Delay relative to video : 25 s 250 ms
  49. Stream size : 4.43 GiB (22%)
  50. Title : DTS-HD MA 7.1
  51. Language : English
  52. Default : Yes
  53. Forced : No

  54. Audio #2
  55. ID : 3
  56. Format : E-AC-3
  57. Format/Info : Enhanced AC-3
  58. Commercial name : Dolby Digital Plus
  59. Codec ID : A_EAC3
  60. Duration : 2 h 5 min
  61. Bit rate mode : Constant
  62. Bit rate : 256 kb/s
  63. Channel(s) : 6 channels
  64. Channel layout : L R C LFE Ls Rs
  65. Sampling rate : 48.0 kHz
  66. Frame rate : 31.250 FPS (1536 SPF)
  67. Compression mode : Lossy
  68. Stream size : 230 MiB (1%)
  69. Language : English
  70. Service kind : Complete Main
  71. Default : No
  72. Forced : No

  73. Text #1
  74. ID : 4
  75. Format : UTF-8
  76. Codec ID : S_TEXT/UTF8
  77. Codec ID/Info : UTF-8 Plain Text
  78. Duration : 1 h 55 min
  79. Bit rate : 44 b/s
  80. Count of elements : 1345
  81. Stream size : 38.0 KiB (0%)
  82. Language : English
  83. Default : Yes
  84. Forced : No

  85. Text #2
  86. ID : 5
  87. Format : UTF-8
  88. Codec ID : S_TEXT/UTF8
  89. Codec ID/Info : UTF-8 Plain Text
  90. Duration : 2 h 3 min
  91. Bit rate : 43 b/s
  92. Count of elements : 1334
  93. Stream size : 39.4 KiB (0%)
  94. Language : Italian
  95. Default : No
  96. Forced : No

  97. Text #3
  98. ID : 6
  99. Format : UTF-8
  100. Codec ID : S_TEXT/UTF8
  101. Codec ID/Info : UTF-8 Plain Text
  102. Duration : 2 h 3 min
  103. Bit rate : 38 b/s
  104. Count of elements : 1285
  105. Stream size : 35.3 KiB (0%)
  106. Language : French
  107. Default : No
  108. Forced : No

  109. Text #4
  110. ID : 7
  111. Format : UTF-8
  112. Codec ID : S_TEXT/UTF8
  113. Codec ID/Info : UTF-8 Plain Text
  114. Duration : 2 h 4 min
  115. Bit rate : 42 b/s
  116. Count of elements : 1401
  117. Stream size : 38.8 KiB (0%)
  118. Language : Spanish
  119. Default : No
  120. Forced : No

  121. Text #5
  122. ID : 8
  123. Format : UTF-8
  124. Codec ID : S_TEXT/UTF8
  125. Codec ID/Info : UTF-8 Plain Text
  126. Duration : 2 h 3 min
  127. Bit rate : 39 b/s
  128. Count of elements : 1313
  129. Stream size : 35.8 KiB (0%)
  130. Language : Polish
  131. Default : No
  132. Forced : No

  133. Text #6
  134. ID : 9
  135. Format : UTF-8
  136. Codec ID : S_TEXT/UTF8
  137. Codec ID/Info : UTF-8 Plain Text
  138. Duration : 2 h 3 min
  139. Bit rate : 48 b/s
  140. Count of elements : 1436
  141. Stream size : 44.4 KiB (0%)
  142. Language : Portuguese
  143. Default : No
  144. Forced : No
复制代码
回复

使用道具 举报

0

主题

417

帖子

0

果子

游学级会员

积分
402
发表于 2021-3-9 19:07:01 来自奇珀手机版 | 显示全部楼层
请问楼主,怎么区分真假4K电影呀?
回复 支持 反对

使用道具 举报

0

主题

452

帖子

0

果子

游学级会员

积分
440
发表于 2021-3-9 19:07:03 | 显示全部楼层
感谢楼主,太NB了,找了很久终于找到真正的4K电影了
回复 支持 反对

使用道具 举报

0

主题

407

帖子

0

果子

游学级会员

积分
391
发表于 2021-4-8 17:55:27 | 显示全部楼层
谢谢楼主给到4K资源信息....
回复 支持 反对

使用道具 举报

0

主题

415

帖子

0

果子

游学级会员

积分
384
发表于 2021-4-8 17:55:29 来自奇珀手机版 | 显示全部楼层
楼主能不能分享百度云的链接啊
回复 支持 反对

使用道具 举报

您需要登录后才可以回帖 登录 | 注册账号

本版积分规则

关闭

论坛推荐上一条 /1 下一条

返回顶部 联系我们